delete

Latin American Neostructuralism: The Contradictions of Post-Neoliberal Development


Latin American Neostructuralism: The Contradictions of Post-Neoliberal Development

Latin American Neostructuralism: The Contradictions of Post-Neoliberal Development by Fernando Ignacio Leiva
English | 2008 | ISBN: 0816653283 | 312 Pages | PDF | 1 MB

This landmark work is the first sustained critique of Latin American neostructuralism, the prevailing narrative that has sought to replace “market fundamentalism” and humanize the “savage capitalism” imposed by neoliberal dogmatism.







delete

djay 2 v2.1 Android-P2P


This article has been published at RLSLOG.net – visit our site for full content.

Cover artP2P group has released the updated version of “djay 2” for Android.

Description: djay transforms your Android device into a full–featured DJ system. Seamlessly integrated with Spotify and all the music on your device, djay gives you direct access to mix your favorite songs and playlists instantly. You can perform live, record mixes on–the–go, or enable Automix mode to let djay create a seamless mix for you automatically. Whether you are a professional DJ or a beginner who just loves to play with music, djay offers you the most intuitive yet powerful DJ experience on an Android device.

djay 2 - screenshot thumbnail

What’s New:

Optimized for Android 5.0 Lollipop with support for multi-channel audio output.
Added support for Pioneer DDJ-WeGO3 DJ controller.
Added support for custom sampler presets.
Fixed loading errors with certain file paths containing special characters.
Fixed handling of screen rotation lock.
Various bugfixes and improvements.
Multi-channel audio output is supported with Pioneer DDJ-WeGO3, Reloop Beatpad, and Griffin DJConnect.

Release Name: djay 2 v2.1 Android-P2P
Size: 63 Mb
Links: Google Play – NTi

Download: Userscloud

more at RLSLOG.net







delete

[Sonstiges] Margot Reisinger & EXISTENCE – TIBET – Heart Beat Meditation (2006)


Margot Reisinger & EXISTENCE

~~~~~~~~~~~~~~~~~~~~~~~~~~~~~
TIBET – Heart • Beat • Meditation (2006)
~~~~~~~~~~~~~~~~~~~~~~~~~~~~~

Künstler/in: Margot Reisinger/EXISTENCE
Album: TIBET – Heart • Beat • Meditation
Label: New Earth Records | Costa Verde
Genre: New Age, Meditative, Mantras, Contemplate
Format: [image+.cue|.FLAC]
Qualität: Lossless / 44.1 Khz
Dauer: 00:63:08
Dateigröße: 401 MB | 1x RAR
Covers: -
Homepage:
COSTA VERDE production – Music for the Soul

~~~~~~~~~~~~~~~| HOSTER |~~~~~~~~~~~~~~

~~~~~~~~~~~~~| |~~~~~~~~~~~~


Titel:

01. Om Mani Padme Hum (10:22)
02. Flower Of Compassion (5:12)
03. Invocation (5:08)
04. Free Tibet (Long Verson) (7:32)
05. Tara Mantra (1:44)
06. Phenpo Song (4:56)
07. Heart Beat Of Life (7:24)
08. Om Tare (5:52)
09. Prises Of Tara (3:03)
10. Reflection Of Balance (6:23)
11. Free Tibet (5:43)

.:| AUDIOCHECKER |:.

Code:

AUDIOCHECKER v2.0 beta (build 457) – by Dester – opdester@freemail.hu
~~~~~~~~~~~~~~~~~~~~~~~~~~~~~~~~~~
-=== DO NOT EDIT THIS FILE! ===-
Path: …\Tibet (tracks)
01 -=- (01) Om Mani Padme Hum.flac -=- CDDA (100%)
02 -=- (02) Flower Of Compassion.flac -=- CDDA (100%)
03 -=- (03) Invocation.flac -=- CDDA (99%)
04 -=- (04) Free Tibet (long version).flac -=- CDDA (100%)
05 -=- (05) Tara Mantra.flac -=- CDDA (100%)
06 -=- (06) Phenpo Song.flac -=- CDDA (99%)
07 -=- (07) Heart Beat Of Life.flac -=- CDDA (100%)
08 -=- (08) Om Tare.flac -=- CDDA (100%)
09 -=- (09) Praises Of Tara.flac -=- CDDA (100%)
10 -=- (10) Reflection Of Balance.flac -=- CDDA (100%)
11 -=- (11) Free Tibet.flac -=- CDDA (100%)
Summary 99,82% CDDA
50639316

.:| CUE |:.

Code:

PERFORMER “Existence & Margot Reisinger”
TITLE “Tibet – Heart Beat Meditation”
FILE “Existence & Margot Reisinger ~ Tibet.flac” WAVE
  TRACK 01 AUDIO
    TITLE “Om Mani Padma Hum”
    INDEX 01 00:00:00
  TRACK 02 AUDIO
    TITLE “Flower Of Compassion”
    INDEX 01 10:20:61
  TRACK 03 AUDIO
    TITLE “Invocation”
    INDEX 01 15:31:21
  TRACK 04 AUDIO
    TITLE “Free Tibet (long version)”
    INDEX 01 20:37:51
  TRACK 05 AUDIO
    TITLE “Tara Mantra”
    INDEX 01 28:08:70
  TRACK 06 AUDIO
    TITLE “Phenpo Song”
    INDEX 01 29:51:63
  TRACK 07 AUDIO
    TITLE “Heart Beat Of Life”
    INDEX 01 34:46:21
  TRACK 08 AUDIO
    TITLE “Om Tare”
    INDEX 01 42:09:10
  TRACK 09 AUDIO
    TITLE “Praises Of Tara”
    INDEX 01 48:00:02
  TRACK 10 AUDIO
    TITLE “Reflection Of Balance”
    INDEX 01 51:01:73
  TRACK 11 AUDIO
    TITLE “Free Tibet”
    INDEX 01 57:24:10


~~~~~~~~~~~~~| |~~~~~~~~~~~~







delete

Creative Market – Ultimate Identity Mock-ups 14538


Creative Market - Ultimate Identity Mock-ups 14538
Creative Market – Ultimate Identity Mock-ups 14538
PSD, PDF, All Files | 2500 x 1718 | Layered | 104 MB







delete

Spirit – Alex Boye


Spirit, Alex Boye
Track limit

Word of God Speak
I Can Only Imagine
Anything Impossible
I Will Not Forget
Faith Endures
Love the Lord
Heart of Worship
Great Light of the World
A Prayer Away
Anything Impossible (Acoustic Version)
How Great Thou Art
Another Testament
Be Still, My Soul: Classic Hymns and Folk Songs
Calling America – EP
Be Still, My Soul: Classic Hymns and Folk Songs
Be Still, My Soul: Classic Hymns and Folk Songs
Calling America – EP
Be Still, My Soul: Classic Hymns and Folk Songs
Another Testament
Be Still, My Soul: Classic Hymns and Folk Songs
Calling America – EP







delete

Troubleshooter: A Novel (Tim Rackley Novels)


Troubleshooter: A Novel (Tim Rackley Novels)

Troubleshooter: A Novel (Tim Rackley Novels) by Gregg Hurwitz
English | 2005 | ISBN: 0060731419 | 320 Pages | PDF | 2 MB

The series that started it all! The maestro of pulse-pounding suspense delivers an explosive new white-knuckle thriller featuring deputy U.







delete

Trap Mentals – Chavoe Manifoe


Trap Mentals, Chavoe Manifoe
Track strip

Trap Mentals
Ima a Thug
Partners
We Gone Win
1000 Ways
So Bad
Dick Ha Down
Gone Turn It Up
Skit Losses
Tdfw
Lord Knows
Tella Tella
Dope Bowl
How High
Hoe
N****s
Trap Mentals
Trap n Confirmed
Trap n Confirmed
Trap n Confirmed
Trap n Confirmed
Trap n Confirmed
Trap n Confirmed
Trap n Confirmed
Trap n Confirmed
Trap n Confirmed







delete

PTC Creo 3.0 M030 + HelpCenter (x86/x64) Multilanguage


PTC Creo 3.0 M030 + HelpCenter (x86/x64) Multilanguage

PTC Creo 3.0 M030 + HelpCenter (x86/x64) Multilanguage | 8.69 GB

Description: cad / CAM / CAE System American company PTC (Parametric Technology Corporation) is a CAD system of the upper level and covers all areas of design, technological preparation of production and manufacturing. A wide range of possibilities unit three-dimensional modeling, high quality of the result and its resistance to subsequent changes made by the system Creo one of the leading CAD / CAM / CAE-systems, and have direct access to the system life cycle support product Windchill PDMLink Creo translates into the category of PLM-systems .







Page 1 of 27312345...102030...Last »